Churn

Let us churn the society


Govindudu Andarivadele (2014) - 720p - DVDScr - x264 - AC3 - 850MB

Share
avatar
Admin
Admin
Admin

Posts : 51
Points : 1298
Reputation : 4
Join date : 2014-09-17

Govindudu Andarivadele (2014) - 720p - DVDScr - x264 - AC3 - 850MB

Post by Admin on Tue Oct 07, 2014 10:54 pm

Govindudu Andarivadele (2014) - 720p - DVDScr - x264 - AC3 - 850MB




Code:
[B]This Movie can not be played in VLC Player. No Audio in VLC Player.[/B]
If not working : install this AUDIO pack : CCCP - Combined Community Codec Pack


General
Unique ID                                : 223316790411972559359166797394223599920 (0xA8013FD6F78F8F23BF25568AC8C49130)
Complete name                            : D:\Download Completed 1\Govindudu.Andarivadele.2014.720P.X264.Ac3.850mb-TTT.mkv
Format                                   : Matroska
Format version                           : Version 2
File size                                : 847 MiB
Duration                                 : 2h 27mn
Overall bit rate                         : 805 Kbps
Encoded date                             : UTC 2014-10-03 23:31:18
Writing application                      : mkvmerge v7.0.0 ('Where We Going') 32bit built on Jun  9 2014 15:08:34
Writing library                          : libebml v1.3.0 + libmatroska v1.4.1
DURATION                                 : 02:27:12.453000000
NUMBER_OF_FRAMES                         : 126794
NUMBER_OF_BYTES                          : 70659620
_STATISTICS_WRITING_APP                  : mkvmerge v7.0.0 ('Where We Going') 32bit built on Jun  9 2014 15:08:34
_STATISTICS_WRITING_DATE_UTC             : 2014-10-03 23:31:18
_STATISTICS_TAGS                         : BPS DURATION NUMBER_OF_FRAMES NUMBER_OF_BYTES

Video
ID                                       : 1
Format                                   : AVC
Format/Info                              : Advanced Video Codec
Format profile                           : High@L3.1
Format settings, CABAC                   : Yes
Format settings, ReFrames                : 5 frames
Codec ID                                 : V_MPEG4/ISO/AVC
Duration                                 : 2h 27mn
Bit rate                                 : 739 Kbps
Width                                    : 1 280 pixels
Height                                   : 576 pixels
Display aspect ratio                     : 2.35:1
Original display aspect ratio            : 2.35:1
Frame rate mode                          : Constant
Frame rate                               : 25.000 fps
Color space                              : YUV
Chroma subsampling                       : 4:2:0
Bit depth                                : 8 bits
Scan type                                : Progressive
Bits/(Pixel*Frame)                       : 0.040
Stream size                              : 763 MiB (90%)
Writing library                          : x264 core 142 r2431 ac76440
Encoding settings                        : cabac=1 / ref=5 / deblock=1:0:0 / analyse=0x3:0x133 / me=umh / subme=7 / psy=1 / psy_rd=1.00:0.50 / mixed_ref=1 / me_range=24 / chroma_me=1 / trellis=2 / 8x8dct=1 / cqm=0 / deadzone=6,6 / fast_pskip=0 / chroma_qp_offset=-4 / threads=3 / lookahead_threads=1 / sliced_threads=0 / nr=0 / decimate=0 / interlaced=0 / bluray_compat=0 / constrained_intra=0 / bframes=4 / b_pyramid=2 / b_adapt=1 / b_bias=0 / direct=3 / weightb=1 / open_gop=0 / weightp=2 / keyint=250 / keyint_min=25 / scenecut=40 / intra_refresh=0 / rc_lookahead=40 / rc=2pass / mbtree=1 / bitrate=739 / ratetol=1.0 / qcomp=0.80 / qpmin=0 / qpmax=69 / qpstep=4 / cplxblur=20.0 / qblur=0.5 / ip_ratio=1.10 / aq=1:0.50
Default                                  : Yes
Forced                                   : No

Audio
ID                                       : 2
Format                                   : AC-3
Format/Info                              : Audio Coding 3
Mode extension                           : CM (complete main)
Format settings, Endianness              : Big
Codec ID                                 : A_AC3/BSID9
Duration                                 : 2h 27mn
Bit rate mode                            : Constant
Bit rate                                 : 64.0 Kbps
Channel count                            : 2 channels
Channel positions                        : Front: L R
Sampling rate                            : 22.05 KHz
Bit depth                                : 16 bits
Compression mode                         : Lossy
Stream size                              : 67.4 MiB (8%)
Default                                  : Yes
Forced                                   : No






SINGLE DIRECT FAST LINKS

Code:
https://www.secureupload.eu/hzjo1ygj30b2/Govindudu.Andarivadele.2014.720P.X264.Ac3.850mb-TTT.mkv

Code:
http://rapidgator.net/file/33e9ffa2f7cd8dc4c5b814ddbcfc0132/Govindudu.Andarivadele.2014.720P.X264.Ac3.850mb-TTT.mkv.html


Code:
http://uploaded.net/file/nnn4ri15/Govindudu.Andarivadele.2014.720P.X264.Ac3.850mb-TTT.mkv

    Current date/time is Fri Nov 24, 2017 8:28 pm