Churn

Let us churn the society


Chirodini Tumi Je Amar 2 (2014) - 1CD - VCD Rip

Share
avatar
MainakR
Moderators
Moderators

Posts : 27
Points : 1097
Reputation : 1
Join date : 2014-09-17

Chirodini Tumi Je Amar 2 (2014) - 1CD - VCD Rip

Post by MainakR on Tue Sep 30, 2014 3:08 am

Chirodini Tumi Je Amar 2 (2014) - 1CD - VCD Rip[Xvid - MP3(2Ch)]


Genre: Drama
Release Date: 11th April, 2014

Chirodini Tumi Je Amar 2 (2014) - IMDb

A splash of liquid washes the canvas for an agonizing tale of love to unfold. Bhanu's pleas for mercy as he is interrogated by a local police unit, introduces an uncanny atmosphere. Thus begins the story of Bhanu, accused of assaulting a young woman named Jyoti, who recites his life story to the chief policeman, surrounding the events leading to his arrival at Kolkata where he was employed at a road side food stall. It turns out that Bhanu had fallen hopelessly in love with Jyoti, who worked as a domestic aid at a swanky complex nearby. The love of true and the feelings blossoming in the heart of Bhanu for Jyoti were sweet. However, somewhere else, a darker side of love comes to light as Raj, a rich spoilt brat utilizing his material excess to woo Shreya, both of whom resided at a ritzy apartment building in close proximity to Bhanu's fast food cart. Initially, Raj and Shreya started establishing a strong bond. Raj showered Shreya with material excess, and later revealed his dark ..



Arjun Chakraborty - Bhanu
Urmila Mahanta - Jyothi
Bihu Mukherjee - Raj
Kharaj Mukherjee - Police Officer
Ena Saha - Shreya


Code:
General
Format                                   : AVI
Format/Info                              : Audio Video Interleave
File size                                : 695 MiB
Duration                                 : 2h 14mn
Overall bit rate                         : 722 Kbps

Video
ID                                       : 0
Format                                   : MPEG-4 Visual
Format profile                           : Advanced Simple@L5
Format settings, BVOP                    : 2
Format settings, QPel                    : Yes
Format settings, GMC                     : No warppoints
Format settings, Matrix                  : Default (H.263)
Codec ID                                 : XVID
Codec ID/Hint                            : XviD
Duration                                 : 2h 14mn
Bit rate                                 : 620 Kbps
Width                                    : 608 pixels
Height                                   : 256 pixels
Frame rate                               : 25.000 fps
Color space                              : YUV
Chroma subsampling                       : 4:2:0
Bit depth                                : 8 bits
Scan type                                : Progressive
Compression mode                         : Lossy
Bits/(Pixel*Frame)                       : 0.159
Stream size                              : 597 MiB (86%)

Audio
ID                                       : 1
Format                                   : MPEG Audio
Format version                           : Version 1
Format profile                           : Layer 3
Mode                                     : Joint stereo
Mode extension                           : MS Stereo
Codec ID                                 : 55
Codec ID/Hint                            : MP3
Duration                                 : 2h 14mn
Bit rate mode                            : Constant
Bit rate                                 : 96.0 Kbps
Channel(s)                               : 2 channels
Sampling rate                            : 32.0 KHz
Compression mode                         : Lossy
Stream size                              : 92.4 MiB (13%)









Code:
http://xerver.co/rie83vp8kmxo

Code:
http://fileinz.com/31pes9xv97fs

Code:
http://rainupload.com/akc

    Current date/time is Thu Jun 29, 2017 2:45 am