Churn

Let us churn the society


Ramdhanu (2014) - 843 MB - TV Rip [Xvid - MP3]

Share
avatar
MainakR
Moderators
Moderators

Posts : 27
Points : 1180
Reputation : 1
Join date : 2014-09-17

Ramdhanu (2014) - 843 MB - TV Rip [Xvid - MP3]

Post by MainakR on Tue Sep 23, 2014 3:51 pm




The film is about a middle class Bengali couple who try to get their only child admitted in an English medium school. The film focuses on the current education system prevalent in the society and the film is centered on school admissions and the ambitions of the child’ mother who is desperate to get her child admitted in that particular school.

Code:
General
Format                                   : AVI
Format/Info                              : Audio Video Interleave
File size                                : 843 MiB
Duration                                 : 2h 20mn
Overall bit rate                         : 840 Kbps

Video
ID                                       : 0
Format                                   : MPEG-4 Visual
Format profile                           : Advanced Simple@L5
Format settings, BVOP                    : 2
Format settings, QPel                    : Yes
Format settings, GMC                     : No warppoints
Format settings, Matrix                  : Default (H.263)
Codec ID                                 : XVID
Codec ID/Hint                            : XviD
Duration                                 : 2h 20mn
Bit rate                                 : 737 Kbps
Width                                    : 688 pixels
Height                                   : 336 pixels
Frame rate                               : 25.000 fps
Color space                              : YUV
Chroma subsampling                       : 4:2:0
Bit depth                                : 8 bits
Scan type                                : Progressive
Compression mode                         : Lossy
Bits/(Pixel*Frame)                       : 0.128
Stream size                              : 741 MiB (88%)

Audio
ID                                       : 1
Format                                   : MPEG Audio
Format version                           : Version 1
Format profile                           : Layer 3
Mode                                     : Joint stereo
Mode extension                           : MS Stereo
Codec ID                                 : 55
Codec ID/Hint                            : MP3
Duration                                 : 2h 20mn
Bit rate mode                            : Constant
Bit rate                                 : 96.0 Kbps
Channel(s)                               : 2 channels
Sampling rate                            : 32.0 KHz
Compression mode                         : Lossy
Stream size                              : 96.4 MiB (11%)




Code:
http://xerver.co/4i223bvgxv3i

http://fileinz.com/lojb0lc3mr2f.html

http://turbobit.net/oww0umg0q807.html

    Current date/time is Wed Sep 20, 2017 12:36 am