Churn

Let us churn the society


Saat Hindustani 1969 DvDrip x264 AC3

Share
avatar
Admin
Admin
Admin

Posts : 51
Points : 1203
Reputation : 4
Join date : 2014-09-17

Saat Hindustani 1969 DvDrip x264 AC3

Post by Admin on Sun Oct 12, 2014 1:09 am

Saat Hindustani 1969 DvDrip x264 AC3






Action | Adventure | Drama
Stars:
Utpal Dutt, Jalal Agha, Anwar Ali,Amitabh Bachchan,Madhu |
Saat Hindustani 1969 DvDrip x264 AC3. 2 channels.Arabic. E.sub.BY.juleyano[ExDT].mkv
Format : Matroska
Format version : Version 4 / Version 2
File size : 1.35 GiB
Duration : 2h 17mn
Overall bit rate mode : Variable
Overall bit rate : 1 403 Kbps


Code:


Video

ID                                      : 1

Format                                  : AVC

Format/Info                              : Advanced Video Codec

Format profile                          : High@L4.0

Format settings, CABAC                  : Yes

Format settings, ReFrames                : 3 frames

Codec ID                                : V_MPEG4/ISO/AVC

Duration                                : 2h 17mn

Bit rate mode                            : Variable

Bit rate                                : 927 Kbps

Maximum bit rate                        : 25.0 Mbps

Width                                    : 544 pixels

Height                                  : 400 pixels

Display aspect ratio                    : 4:3

Frame rate mode                          : Constant

Frame rate                              : 25.000 fps

Color space                              : YUV

Chroma subsampling                      : 40

Bit depth                                : 8 bits

Scan type                                : Progressive

Bits/(Pixel*Frame)                      : 0.170

Stream size                              : 913 MiB (66%)

Writing library                          : x264 core 135 r2345 f0c1c53

Default                                  : Yes

Forced                                  : No



Audio

ID                                      : 2

Format                                  : AC-3

Format/Info                              : Audio Coding 3

Mode extension                          : CM (complete main)

Format settings, Endianness              : Big

Codec ID                                : A_AC3

Duration                                : 2h 17mn

Bit rate mode                            : Constant

Bit rate                                : 448 Kbps

Channel(s)                              : 2 channels

Channel positions                        : Front: L R

Sampling rate                            : 48.0 KHz

Bit depth                                : 16 bits

Compression mode                        : Lossy

Stream size                              : 442 MiB (32%)

Language                                : Hindi

Default                                  : Yes

Forced                                  : No



  



















Watch online







Direct links

Code:

1.3 gb good quality

http://adf.ly/smnYd


Code:
medium quality 550 mb

http://adf.ly/smndd


Code:
for mobile users 3gp format

http://adf.ly/smngs

    Current date/time is Tue Aug 22, 2017 2:42 am